Корней и Zebra Band («Let It Be» 50th Anniversary) - Nash Albert (John Lennon Birthday) - The Beatween (Early Years) - Dans Ramblers (Best of The Beatles) - Underhood (Psychedelic) - The Beatboys (Best of The Beatles) - The 4Beatles (Hamburg) - Сергей Гуцан & Buick Mackane (T. Rex Tribute) - Cross Eyed Cats (The Rolling Stones Tribute) - Не Секрет (трибьют бит-квартету «Секрет»)
Корней и Zebra Band («Let It Be» 50th Anniversary) - Nash Albert (John Lennon Birthday) - The Beatween (Early Years) - Dans Ramblers (Best of The Beatles) - Underhood (Psychedelic) и другие!
Корней и Zebra Band («Let It Be» 50th Anniversary) и другие!
"Let It Be" полностью и вживую!
Подробнее
Beatles.ru
Войти на сайт 
Регистрация | Выслать пароль 
Новости Книги Мр.Поустман Барахолка Оффлайн Ссылки Спецпроекты
Главная / Мр.Поустман / Форум Music General / Что новенького! (обсуждение "лицензионных дисков")

Поиск
Искать:  
СоветыVox populi  

Мр. Поустман

Поздравляем с днем рождения!
Mikhal (29), ritamustard (32), Zhenya (38), Снусмумрик (43), Анастасия Боголепова (44), Wamp (47)

Поздравляем с годовщиной регистрации!
Talley (8), Магический гармонический (10), Frololote (10), kasparov_i (10), Sakala23 (11), profan (12), Speed King (12), Max 66 (12), Liber (13), Kriger (13), Igoridze (13), ambara (15), Alexir (15), Cypher (15), inigo (16), Юров Алексей (17), niacat (17), lukas (18), Spoiler (18), KinaRAM (19), КОЛЯН-HIPPY (19), Marybaby (19), Ира (20)

Последние новости:
21.09 Мэшап-группа Beatallica анонсировала новый альбом
21.09 ООН выпустила марки с изображением Джона Леннона в честь Международного дня мира
21.09 Найден еще один цветной винил McCartney III
18.09 Маккартни расскажет о своей новой книге 5 ноября в Лондоне
18.09 Трансляция трибьюта Dear John пройдет 9 октября
18.09 Папарацци сфотографировали встречу Пола Маккартни, Нэнси Шевелл, Ринго Старра, Барбары Бах и Оливии Харрисон
18.09 Умерла Шейла Бромберг, исполнившая партию арфы в песне She’s Leaving Home
... статьи:
25.09 John Lee Hooker
24.09 Статья "It was twenty years ago today…" журнала Rolling Stone (June 18th, 1987) - перевод журнала "Ровесник" и полный перевод
14.09 Супергруппа The Traveling Wilburys
... периодика:
19.09 The Beatles переоценены
29.08 Как «Мелодия» удовлетворяла вкус советского меломана
29.08 Митинг битломанов в Москве’80

   

Что новенького! (обсуждение "лицензионных дисков")

Страницы (1487): [<<]   271 | 272 | 273 | 274 | 275 | 276 | 277 | 278 | 279 |  Еще>>
Ответить Новая тема | Вернуться во "Все форумы"
Сообщение  
Re: Что новенького! (обсуждение "лицензионных дисков")
Автор: vikont_11   Дата: 29.03.19 22:16:51   
Сообщить модераторам | Ссылка
2ШУРПЕТ:
У нас в 2008 году выходил на болванках, в 2014
издали ремастеринг в Японии. Какой сейчас сделали
остается только гадать, т.к. кроме как в Польше
нигде не выпускались.

Я в курсе, хотелось бы уточнить с какого издания.
Поляки издали и такие и такие, японцев отбрасываем OBI нету.
Ирония  
Re: Что новенького! (обсуждение "лицензионных дисков")
Автор: Aqualung   Дата: 30.03.19 10:47:42   
Сообщить модераторам | Ссылка
BATTLE BEAST NEW!!!	No More Hollywood Endings 	2019BATTLE BEAST NEW!!! No More Hollywood Endings 2019
DAVID GRAY NEW!!! GOLD IN A BRASS AGE 2019
FRANCIS ROSSI & HANNAH RICKARD NEW!!!ex-STATUS QUO We Talk To Much 2019
LANDGREN/WOLLNY/DANIELSSON NEW!!! 4 WHEEL DRIVE 2019
PINK MARTINI NEW!!! NON OUAIS 2019
RICKY PETERSON & WDR BIG BAND NEW!!!(Ex-STING, DAVID SANBORN, PRINCE etc) Drop Shot 2019
RIPPINGTONS NEW!!!Feat. RUSS FREEMAN Open Road 2019
ROBIN TROWER NEW!!! COMING CLOSER TO THE DAY 2019
SCHILLER NEW!!! MORGENSTUND 2019
SUZI QUATRO NEW!!! NO CONTROL 2019
THE CHEMICAL BROTHERS NEW!!! NO GEOGRAPHY 2019
THE END MACHINE NEW!!Frontiers Rec. ex-DOKKEN, LYNCH MOB The End Machine 2019
Сообщение  
Re: Что новенького! (обсуждение "лицензионных дисков")
Автор: vikont_11   Дата: 30.03.19 21:05:20   
Сообщить модераторам | Ссылка
Приобрёл Escombros – Escombros 1970 (КНИГА)
В буклете не хватает 4-х страниц, хотя на это было указано ранее.
Ни фига не прислушались, ошибку не исправили, на бумаге решили экономить.
Ирония  
Re: Что новенького! (обсуждение "лицензионных дисков")
Автор: Aqualung   Дата: 31.03.19 00:01:31   
Сообщить модераторам | Ссылка
BILLY F GIBBONS AND THE BFG'S (dop)  (vokalist/gitarist ZZ Top) 	Perfectamundo  	2015BILLY F GIBBONS AND THE BFG'S (dop) (vokalist/gitarist ZZ Top) Perfectamundo 2015
MONSTROSITY In Dark Purity 1999
MONSTROSITY Spiritual Apocalypse 2007
MONSTROSITY The Passage of Existence 2018
MONSTROSITY Rise to Power (remaster+3bonus track) 2004\2018
MONSTROSITY (dop) Imperial Doom 1992
RAMMSTEIN (dop) Sehnsucht 1997
RAMMSTEIN (dop) Liebe ist fur alle da 2009
RAMMSTEIN (dop) Volkerball CD-1 2007
RAMMSTEIN (dop) Volkerball DVD-2 2007
SUZI QUATRO NEW ALBUM No Control 2019
W.A.S.P. (dop) Babylon (Remaster) 2009\2015
Сообщение  
Re: Что новенького! (обсуждение "лицензионных дисков")
Автор: Norzaargh   Дата: 31.03.19 09:32:08   
Сообщить модераторам | Ссылка
KIVI ЭТОЙ НЕДЕЛИ 1.04.2019

SUZY QUATRO (New Album) 2019 No Control 16 -page
BATTLE BEAST (New Album,Melodic Heavy Metal) 2019 No More Hollywood Endings 16 -page
MOTLEY CRUE (New Best Album,with 4 NEW SONGS) 2019 The Dirt Soundtrack 12-p/poster
JOHN ILLSLEY (New Album,ex-Dire Straits.Rock, Blues Rock, Folk Rock) 2019 Coming Up For Air 12 -page
LACRIMOSA (2 CD,New Best Album,1 New Song) 2019 Zeitreise 16 -page
ROULETTE (New Album,memb. Whitesnake,Satriani,Vicious Rumors,Baton Rouge,Eric Martin.Melodic Rock / AOR) 2019 Now 12 -page
FROZEN CROWN (New Album,Power Metal) 2019 Crowned in Frost 8 -page
TREATMENT,THE (New Album,Hard Rock) 2019 Power Crazy 12 -page
END MACHINE,THE (New Album,memb.Dokken,Warrant,Lynch Mob.Hard Rock) 2019 The End Machine 8 -page
ARTILLERY (Thrash Metal) Первопресс Roadracer Records!! 1990 By Inheritance 6 -page
ARTILLERY (Thrash Metal) Первопресс Axe Killer!! В буклет добавлены тексты песен!! 1985 Fear Of Tomorrow 8 -page
ARTILLERY (Thrash Metal) Первопресс Axe Killer!! В буклет добавлены тексты песен!! 1987 Terror Squad 8 -page
MERCILESS (Death Metal) Первопресс Anti-Mosh Records 1989 The Awakening 4 -page
MERCILESS (Death / Thrash Metal) Первопресс Active Records 1992 The Treasures Within 8 -page
MERCILESS (Death / Thrash Metal) Первопресс No Fashion Records 1994 Unbound 16 -page
HELLOWEEN (лучший звук с первого яп. минивинила 1994г.+буклет с цв.текстами) 1987 Keeper Of The Seven Keys I 8 -page
HELLOWEEN (лучший звук с первого яп. минивинила 1994г.+буклет с цв.текстами) 1988 Keeper Of The Seven Keys II 8 -page
MICHAEL SCHENKER FEST (New Album,G.Barden,G.Bonnet,R.McAuley,D.White,Ch.Glen,T.McKenna,K.Hammett) 2018 Resurrection 20 -page
ЭКСКЛЮЗИВНЫЕ И ОГРАНИЧЕННЫЕ ТИРАЖИ
*GRIFFIN (memb.Metal Church,Heathen) NEW!! Первопресс STEAMHAMMER!! 1984 Flight Of The Griffin 4 -page
*GRIFFIN (memb.Metal Church,Heathen) NEW!! Первопресс STEAMHAMMER!! 1986 Protectors Of The Lair 4 -page
*HAVOC (Power/Thrash Metal,USA) NEW!! Первопресс STEAMHAMMER!! 1986 The Grip 4 -page
*RICHARD SANDERSON (Europop, Ballad, Schlager) Впервые на СД!! 1981 I'm In Love 4 -page
*RICHARD SANDERSON (Europop, Ballad, Schlager) 1987 Reality 4 -page
Ирония  
Re: Что новенького! (обсуждение "лицензионных дисков")
Автор: Aqualung   Дата: 31.03.19 12:07:26   
Сообщить модераторам | Ссылка
MANDRILL (legendary funk band)	Composite Truth	1972MANDRILL (legendary funk band) Composite Truth 1972
MANDRILL (legendary funk band) Just Outside of Town 1973
MANDRILL (legendary funk band) Mandrilland 1974
MANDRILL (legendary funk band) Solid 1975
OSIBISA (legendary funk band) Osibirock 1974
OSIBISA (legendary funk band) Welcome Home 1975
OSIBISA (legendary funk band) Happy Children 1973
Сообщение  
Re: Что новенького! (обсуждение "лицензионных дисков")
Автор: vikont_11   Дата: 31.03.19 18:13:05   
Сообщить модераторам | Ссылка
Presto Ballet – The Days Between 2018 от ТАЙМ БЛЮЗ

TOC of the extracted CD

Track | Start | Length | Start sector | End sector
---------------------------------------------------------
1 | 0:00.00 | 6:28.45 | 0 | 29144
2 | 6:28.45 | 3:56.70 | 29145 | 46914
3 | 10:25.40 | 5:47.20 | 46915 | 72959
4 | 16:12.60 | 6:21.55 | 72960 | 101589
5 | 22:34.40 | 7:30.07 | 101590 | 135346
6 | 30:04.47 | 10:08.62 | 135347 | 181008
7 | 40:13.34 | 7:00.55 | 181009 | 212563


Track 1

Filename С:\Presto Ballet – The Days Between 2018\01 Out Of Mind (It's Outta Sight).wav

Pre-gap length 0:00:02.00

Peak level 100.0 %
Extraction speed 2.1 X
Track quality 100.0 %
Test CRC DBB1BA5B
Copy CRC D5D16176
Track not present in AccurateRip database
Copy OK

Track 2

Filename С:\Presto Ballet – The Days Between 2018\02 Earthbound.wav

Peak level 100.0 %
Extraction speed 2.2 X
Track quality 100.0 %
Test CRC 843ED57B
Copy CRC 843ED57B
Track not present in AccurateRip database
Copy OK

Track 3

Filename С:\Presto Ballet – The Days Between 2018\03 Tip Of The Hat.wav

Peak level 100.0 %
Extraction speed 2.1 X
Track quality 99.9 %
Test CRC 6E86EE2D
Copy CRC 6E86EE2D
Track not present in AccurateRip database
Copy OK

Track 4

Filename С:\Presto Ballet – The Days Between 2018\04 I Just Drive.wav

Pre-gap length 0:00:00.01

Peak level 100.0 %
Extraction speed 2.4 X
Track quality 99.9 %
Test CRC 8E1F3E72
Copy CRC 6561891E
Track not present in AccurateRip database
Copy OK

Track 5

Filename С:\Presto Ballet – The Days Between 2018\05 Hard Time For Dreamers.wav

Peak level 100.0 %
Extraction speed 2.2 X
Track quality 99.9 %
Test CRC 3A38FFF8
Copy CRC 2167BDBA
Track not present in AccurateRip database
Copy OK

Track 6

Filename С:\Presto Ballet – The Days Between 2018\06 I Am Wire.wav

Peak level 100.0 %
Extraction speed 3.2 X
Track quality 100.0 %
Test CRC 59259BAA
Copy CRC 4E48849B
Track not present in AccurateRip database
Copy OK

Track 7

Filename С:\Presto Ballet – The Days Between 2018\07 The Man With The Plastic Face.wav

Peak level 100.0 %
Extraction speed 1.2 X
Track quality 99.7 %
Test CRC 254054B2
Copy CRC 0CC0B66F
Track not present in AccurateRip database
Copy OK





Ирония  
Re: Что новенького! (обсуждение "лицензионных дисков")
Автор: Aqualung   Дата: 31.03.19 18:52:03   
Сообщить модераторам | Ссылка
Cerrone (2 in 1) (limited edition)  Love in C minor + Cerrone's paradise + 3 bonus tracks  77/76
Cerrone (2 in 1) (limited edition) VII (You are the one) + Cerrone VI 80/80
Cerrone (2 in 1) (limited edition)  8 (Back track) + V (Angelina)  82/79
Сообщение  
Re: Что новенького! (обсуждение "лицензионных дисков")
Автор: vikont_11   Дата: 02.04.19 18:38:12   
Сообщить модераторам | Ссылка
Подскажите, в каком прайсе искать, не могу найти.
LAST AUTUMN'S DREAM - Secret Treasures 2019
INGLORIOUS - Ride To Nowhere 2019
Сообщение  
Re: Что новенького! (обсуждение "лицензионных дисков")
Автор: Antidevyatyi   Дата: 02.04.19 18:40:55   
Сообщить модераторам | Ссылка
2vikont_11:

INGLORIOUS - Ride To Nowhere 2019 - бы на B&T,видать продали. Я,тоже не успел
Сообщение  
Re: Что новенького! (обсуждение "лицензионных дисков")
Автор: Antidevyatyi   Дата: 02.04.19 18:46:33   
Сообщить модераторам | Ссылка
>Взял на неделе Paul McCartney Collection

>Взял на неделе Paul McCartney Collection
>(Wings at the speed of sound и Back to the Egg
>- обложки правильные,а диски от других изданий)


Кто,знает брак исправили?
Или с этим "жить",до следующего раза?



Сообщение  
Re: Что новенького! (обсуждение "лицензионных дисков")
Автор: vikont_11   Дата: 03.04.19 20:23:38   
Сообщить модераторам | Ссылка
Walter Trout / Survivor Blues - 2019 от КИВИ

TOC of the extracted CD

Track | Start | Length | Start sector | End sector
---------------------------------------------------------
1 | 0:00.00 | 7:01.67 | 0 | 31641
2 | 7:01.67 | 3:56.07 | 31642 | 49348
3 | 10:57.74 | 5:27.49 | 49349 | 73922
4 | 16:25.48 | 4:44.69 | 73923 | 95291
5 | 21:10.42 | 3:47.03 | 95292 | 112319
6 | 24:57.45 | 6:36.14 | 112320 | 142033
7 | 31:33.59 | 4:26.69 | 142034 | 162052
8 | 36:00.53 | 6:38.25 | 162053 | 191927
9 | 42:39.03 | 4:17.66 | 191928 | 211268
10 | 46:56.69 | 5:00.59 | 211269 | 233827
11 | 51:57.53 | 6:52.60 | 233828 | 264787
12 | 58:50.38 | 6:17.37 | 264788 | 293099


Track 1

Filename С:\Walter Trout – Survivor Blues 2019\01 Me, My Guitar And The Blues.wav

Pre-gap length 0:00:02.00

Suspicious position 0:02:05
Suspicious position 0:02:07
Suspicious position 0:03:21
Suspicious position 0:04:17
Suspicious position 0:05:15

Peak level 98.8 %
Extraction speed 0.4 X
Track quality 99.2 %
Test CRC F1C1E34F
Copy CRC C90F269A
Cannot be verified as accurate (confidence 7) [B48177AB], AccurateRip returned [CE297C8E] (AR v2)
Copy finished

Track 2

Filename С:\Walter Trout – Survivor Blues 2019\02 Be Careful How You Vote.wav

Suspicious position 0:00:00
Suspicious position 0:01:20
Suspicious position 0:02:26
Suspicious position 0:02:52
Suspicious position 0:03:32

Peak level 98.7 %
Extraction speed 0.2 X
Track quality 98.6 %
Test CRC 65D5610C
Copy CRC 84DC6C72
Cannot be verified as accurate (confidence 7) [35B80467], AccurateRip returned [FEB91EDD] (AR v2)
Copy finished

Track 3

Filename С:\Walter Trout – Survivor Blues 2019\03 Woman Don't Lie.wav

Pre-gap length 0:00:00.01

Suspicious position 0:00:23
Suspicious position 0:02:17
Suspicious position 0:02:43
Suspicious position 0:03:25
Suspicious position 0:04:06

Peak level 98.8 %
Extraction speed 0.2 X
Track quality 98.6 %
Test CRC 63197857
Copy CRC 9E9A6197
Cannot be verified as accurate (confidence 7) [BEEF8F07], AccurateRip returned [CD85C8BB] (AR v2)
Copy finished

Track 4

Filename С:\Walter Trout – Survivor Blues 2019\04 Sadie.wav

Suspicious position 0:00:00
Suspicious position 0:00:15
Suspicious position 0:01:33
Suspicious position 0:01:53
Suspicious position 0:03:24
Suspicious position 0:03:53

Peak level 98.8 %
Extraction speed 0.2 X
Track quality 98.6 %
Test CRC C01F554D
Copy CRC 96B6909E
Cannot be verified as accurate (confidence 7) [932D1E96], AccurateRip returned [77E2A869] (AR v2)
Copy finished

Track 5

Filename С:\Walter Trout – Survivor Blues 2019\05 Please Love Me.wav

Suspicious position 0:00:09
Suspicious position 0:00:26
Suspicious position 0:01:49
Suspicious position 0:02:47
Suspicious position 0:02:49
Suspicious position 0:03:19

Peak level 98.8 %
Extraction speed 0.1 X
Track quality 98.1 %
Test CRC D9B5FB44
Copy CRC 04124AA6
Cannot be verified as accurate (confidence 7) [6E0D91B7], AccurateRip returned [F19B5E42] (AR v2)
Copy finished

Track 6

Filename С:\Walter Trout – Survivor Blues 2019\06 Nature's Disappearing.wav

Suspicious position 0:00:16
Suspicious position 0:00:49
Suspicious position 0:01:11 - 0:01:12
Suspicious position 0:01:19
Suspicious position 0:01:49
Suspicious position 0:02:03
Suspicious position 0:02:07
Suspicious position 0:02:21
Suspicious position 0:02:24
Suspicious position 0:02:30
Suspicious position 0:02:34 - 0:02:36
Suspicious position 0:02:42
Suspicious position 0:02:52
Suspicious position 0:03:14
Suspicious position 0:03:19
Suspicious position 0:04:37
Suspicious position 0:05:03

Peak level 98.2 %
Extraction speed 0.0 X
Track quality 97.5 %
Test CRC F288CDD7
Copy CRC 4CD55FA1
Cannot be verified as accurate (confidence 7) [C5209470], AccurateRip returned [2DBDFB99] (AR v2)
Copy finished

Track 7

Filename С:\Walter Trout – Survivor Blues 2019\07 Red Sun.wav

Suspicious position 0:00:00

Copy aborted

Track 8

Copy aborted

Track 9

Copy aborted

Track 10

Copy aborted

Track 11

Copy aborted

Track 12

Copy aborted


6 трек(и) не удалось проверить на точность

Улыбка  
Re: Что новенького! (обсуждение "лицензионных дисков")
Автор: realife   Дата: 04.04.19 00:34:10   
Сообщить модераторам | Ссылка
не вижу ничего удивительного с Walter Trout / Survivor Blues. его издали на неделю раньше официального релиза.
Сообщение  
Re: Что новенького! (обсуждение "лицензионных дисков")
Автор: Omarao   Дата: 04.04.19 12:34:28   
Сообщить модераторам | Ссылка
2realife:

>не вижу ничего удивительного с Walter Trout /
>Survivor Blues. его издали на неделю раньше официального релиза.

Собственно как и Мальмстина.
Сообщение  
Re: Что новенького! (обсуждение "лицензионных дисков")
Автор: vikont_11   Дата: 04.04.19 15:05:34   
Сообщить модераторам | Ссылка
2realife:

не вижу ничего удивительного с Walter Trout / Survivor Blues. его издали на неделю раньше официального релиза.

Ну и на хрена гнать брак, типа мы первые и срубить по лёгкому бабло.
Слов нету, одни буквы.

Blues Company / Ain't Givin' Up 2019 от КИВИ

TOC of the extracted CD

Track | Start | Length | Start sector | End sector
---------------------------------------------------------
1 | 0:00.00 | 6:20.15 | 0 | 28514
2 | 6:20.15 | 5:17.46 | 28515 | 52335
3 | 11:37.61 | 4:02.49 | 52336 | 70534
4 | 15:40.35 | 6:52.64 | 70535 | 101498
5 | 22:33.24 | 5:04.06 | 101499 | 124304
6 | 27:37.30 | 4:56.62 | 124305 | 146566
7 | 32:34.17 | 5:00.51 | 146567 | 169117
8 | 37:34.68 | 3:47.39 | 169118 | 186181
9 | 41:22.32 | 3:35.47 | 186182 | 202353
10 | 44:58.04 | 5:32.44 | 202354 | 227297
11 | 50:30.48 | 5:30.29 | 227298 | 252076


Track 1

Filename С:\Blues Company – Ain't Givin' Up 2019\01 Ain't Givin' Up.wav

Pre-gap length 0:00:02.00

Suspicious position 0:00:02
Suspicious position 0:00:32
Suspicious position 0:01:23
Suspicious position 0:02:48
Suspicious position 0:03:38
Suspicious position 0:05:21
Suspicious position 0:05:32
Suspicious position 0:06:17

Peak level 92.4 %
Extraction speed 0.1 X
Track quality 98.4 %
Test CRC 1AC452E5
Copy CRC 5FA17B1C
Cannot be verified as accurate (confidence 1) [D4820121], AccurateRip returned [26D68DF0] (AR v2)
Copy finished

Track 2

Filename С:\Blues Company – Ain't Givin' Up 2019\02 Guns.wav

Copy aborted








Ироничная ухмылка  
Re: Что новенького! (обсуждение "лицензионных дисков")
Автор: normal person   Дата: 04.04.19 15:25:51   
Сообщить модераторам | Ссылка
2realife:

>не вижу ничего удивительного с Walter Trout /
>Survivor Blues. его издали на неделю раньше официального релиза.

И что? В инете альбом был ещё в декабре прошлого года. Вообще,какое отношение наличие исходника для тиражирования имеет к ошибкам рипа?
Голливудская улыбка  
Re: Что новенького! (обсуждение "лицензионных дисков")
Автор: realife   Дата: 04.04.19 15:53:12   
Сообщить модераторам | Ссылка
есть лайфхак!!! надо в этой теме побольше подробностей "неаккуратных" рипов выкладывать. больше вероятности, что у издателей чувство вины взыграет.
...ну и конечно, продолжать жаловаться, жаловаться и еще раз жаловаться!
Ирония  
Re: Что новенького! (обсуждение "лицензионных дисков")
Автор: Aqualung   Дата: 04.04.19 17:28:28   
Сообщить модераторам | Ссылка
SHINKI CHEN ( Heavy Psychedelic Rock-Japan )	1971	Shinki ChenSHINKI CHEN ( Heavy Psychedelic Rock-Japan ) 1971 Shinki Chen
FOOD BRAIN ( Progressive Rock, Heavy Prog, Psychedelic Rock-Japan ) 1971 Bansan ( Social Gathering )
CANDLEMASS ( Epic Doom Metal-Sweden ) 1986 Epicus, Doomicus, Metallicus
CANDLEMASS ( Epic Doom Metal-Sweden ) 1987 Night Fall
CANDLEMASS ( Epic Doom Metal-Sweden ) 1988 Ancient Dreams
HOLY MOSES ( Thrash Metal-Germany ) 1986 Queen Of Siam
HOLY MOSES ( Thrash Metal-Germany ) 1987 Finished With The Dogs
HOLY MOSES ( Thrash Metal-Germany ) 1989 The New Machine Of Liechtenstein
Сообщение  
Re: Что новенького! (обсуждение "лицензионных дисков")
Автор: Norzaargh   Дата: 04.04.19 19:15:16   
Сообщить модераторам | Ссылка
2Aqualung:
>CANDLEMASS ( Epic Doom Metal-Sweden ) 1986Epicus,
>Doomicus, Metallicus
>CANDLEMASS ( Epic Doom Metal-Sweden ) 1987Night Fall
>CANDLEMASS ( Epic Doom Metal-Sweden ) 1988Ancient Dreams
>HOLY MOSES ( Thrash Metal-Germany )1986Queen
>Of Siam
>HOLY MOSES ( Thrash Metal-Germany )1987Finished
>With The Dogs
>HOLY MOSES ( Thrash Metal-Germany )1989The New
>Machine Of Liechtenstein

Рукоплещу стоя! Прям вот как по заказу, именно то что надо.
Надеюсь на продолжение банкета. У Candlemass "Tales of Creation" надо бы еще для полного счастья.
Ну и затаив дыхание жду Queensryche дискографию по 90-й год включительно.
Сообщение  
Re: Что новенького! (обсуждение "лицензионных дисков")
Автор: vikont_11   Дата: 04.04.19 22:18:17   
Сообщить модераторам | Ссылка
Спасибо за
SHINKI CHEN ( Heavy Psychedelic Rock-Japan ) 1971 Shinki Chen
FOOD BRAIN ( Progressive Rock, Heavy Prog, Psychedelic Rock-Japan ) 1971 Bansan ( Social Gathering )

До кучи, ещё эти выпустили бы

https://www.discogs.com/artist/510381-Speed-Glue-amp-Shinki
Страницы (1487): [<<]   271 | 272 | 273 | 274 | 275 | 276 | 277 | 278 | 279 |  Еще>>
Ответить Новая тема | Вернуться во "Все форумы"
Главная страница Сделать стартовой Контакты Пожертвования В начало
Copyright © 1999-2021 Beatles.ru.
При любом использовании материалов сайта ссылка обязательна.

Условия использования      Политика конфиденциальности


Яндекс.Метрика